Меж высоких хлебов (1970) DVDRip-AVC от ExKinoRay. Меж высоких хлебов torrent


Меж высоких хлебов через торрент

GeneralUnique ID Mezh vysokih hlebov 1970 DVDRip-AVC.mkvFormat : MatroskaFormat version : Version 2File size : 1.70 GiBDuration : 1 h 16 minOverall bit rate : 3 200 kb/sEncoded date : UTC 2015-04-09 00:51:35Writing application : mkvmerge v5.8.0 ('No Sleep / Pillow') built on Sep 2 2012 15:37:04Writing library : libebml v1.2.3 + libmatroska v1.3.0

VideoID : 1Format : AVCFormat/Info : Advanced Video CodecFormat profile : [email protected] settings, CABAC : YesFormat settings, ReFrames : 15 framesCodec ID : V_MPEG4/ISO/AVCDuration : 1 h 16 minBit rate : 2 750 kb/sWidth : 696 pixelsHeight : 390 pixelsDisplay aspect ratio : 1.903Original display aspect ratio : 1.904Frame rate mode : ConstantFrame rate : 25.000 FPSColor space : YUVChroma subsampling : 4:2:0Bit depth : 8 bitsScan type : ProgressiveBits/(Pixel*Frame) : 0.405Stream size : 1.43 GiB (84%)Writing library : x264 core 142 r2431 ac76440Encoding settings : cabac=1 / ref=15 / deblock=1:-2:-2 / analyse=0x3:0x133 / me=umh / subme=10 / psy=1 / psy_rd=1.05:0.15 / mixed_ref=1 / me_range=24 / chroma_me=1 / trellis=2 / 8x8dct=1 / cqm=0 / deadzone=21,11 / fast_pskip=0 / chroma_qp_offset=-3 / threads=12 / lookahead_threads=2 / sliced_threads=0 / nr=0 / decimate=0 / interlaced=0 / bluray_compat=0 / constrained_intra=0 / bframes=7 / b_pyramid=2 / b_adapt=2 / b_bias=0 / direct=3 / weightb=1 / open_gop=0 / weightp=2 / keyint=250 / keyint_min=25 / scenecut=40 / intra_refresh=0 / rc=2pass / mbtree=0 / bitrate=2750 / ratetol=1.0 / qcomp=0.65 / qpmin=0 / qpmax=39 / qpstep=4 / cplxblur=20.0 / qblur=0.5 / ip_ratio=1.40 / pb_ratio=1.30 / aq=1:1.00Language : EnglishDefault : YesForced : NoColor range : LimitedColor primaries : BT.601 PALTransfer characteristics : BT.470 System B, BT.470 System GMatrix coefficients : BT.601

AudioID : 2Format : AC-3Format/Info : Audio Coding 3Mode extension : CM (complete main)Format settings, Endianness : BigCodec ID : A_AC3Duration : 1 h 16 minBit rate mode : ConstantBit rate : 448 kb/sChannel(s) : 6 channelsChannel positions : Front: L C R, Side: L R, LFESampling rate : 48.0 kHzFrame rate : 31.250 FPS (1536 spf)Compression mode : LossyStream size : 244 MiB (14%)Default : YesForced : No

piratbit.pw

Меж высоких хлебов (1970) DVDRip скачать бесплатно

Меж высоких хлебов (1970) DVDRip

Русское название: Меж высоких хлебовГод выпуска: 1970Страна: СССРЖанр: комедия Дата российской премьеры: 19 июля 1971

Режиссер: Леонид МиллионщиковАктеры: Евгений Леонов, Зинаида Дехтярева, Маргарита Криницына, Галина Микеладзе, Лев Прыгунов, Генрих Осташевский, Иван Симоненко, Елена Коваленко, Дмитрий Капка, Николай Яковченко, В. Васильев, Зоя Федорова......

Описание фильма:Деревенский конюх Павло Стручок по своей слабохарактерности не отказывался от угощений, которыми люди платили за услуги. Так появилась у него слабость к выпивке, а из-за этого - и неприятные истории. Однажды дело дошло до народного суда, после чего пристыженный Стручок бежал в Киев. Однако жизнь в большом городе, где в нем никто не нуждался, оказалась для него невыносимой - и Павло вернулся в свое село...

Продолжительность: 01:16:48Качество видео: DVDRip

Видеокодек: XviDБитрейт видео: ~2085 kbps avgРазмер кадра: 720x384Аудиокодек: AC3Битрейт аудио: 48.0 kHz, AC3 , 6 ch ~448 Kbps avg

Формат : AVIФормат/Информация : Audio Video InterleaveРазмер файла : 383 МбайтПродолжительность : 1 ч. 16 м.Общий поток : 2698 Кбит/секПрограмма кодирования : VirtualDubMod 1.5.4.1 (build 2178/release)Библиотека кодирования : VirtualDubMod build 2178/release

ВидеоИдентификатор : 0Формат : MPEG-4 VisualПрофиль формата : Advanced [email protected]Параметр BVOP формата : 1Параметр QPel формата : НетПараметр GMC формата : Без точки переходаПараметр матрицы формата : ВыборочнаяИдентификатор кодека : XVIDИдентификатор кодека/Подсказка : XviDПродолжительность : 1 ч. 16 м.Битрейт : 2085 Кбит/секШирина : 720 пикселейВысота : 384 пикселяСоотношение сторон : 1,85:1Частота кадров : 25,000 кадров/секЦветовое пространство : YUVСубдискретизация насыщенности : 4:2:0Битовая глубина : 8 битТип развёртки : ПрогрессивнаяМетод сжатия : С потерямиБит/(Пиксели*Кадры) : 0.131Размер потока : 117 Мбайт (31%)Библиотека кодирования : XviD 1.2.0.dev47 (UTC 2006-11-01)

АудиоИдентификатор : 1Формат : AC-3Формат/Информация : Audio Coding 3Расширение режима : CM (complete main)Параметр Endianness формата : BigИдентификатор кодека : 2000Продолжительность : 1 ч. 16 м.Вид битрейта : ПостоянныйБитрейт : 448 Кбит/секКаналы : 6 каналовРасположение каналов : Front: L C R, Side: L R, LFEЧастота : 48,0 КГцБитовая глубина : 16 битМетод сжатия : С потерямиРазмер потока : 246 Мбайт (64%)Выравнивание : Разделение по промежуткам

Скриншоты:

multi3ker.org

Скачать Меж высоких хлебов (1970) DVDRip

Меж высоких хлебов (1970) DVDRip Год выпуска: 1970Страна: СССРЖанр: Комедия

Описание фильма:Ироничная комедия о колхозном конюхе со смешным именем Павло Стручок – добром и отзывчивом человеке. За свою душевную щедрость и неспособность отказать в помощи по первой же просьбе Павло заслужил любовь односельчан и их благодарность в виде угощения горилкой. Павло не может устоять перед выпивкой и начинает ею злоупотреблять вопреки переживаниям своей избранницы, вдовы, к которой он - пока безуспешно - сватался. Решили односельчане перевоспитать Стручка с помощью товарищеского суда, которого тот не смог выдержать и уехал в Киев...

Режиссер: Леонид МиллионщиковАктеры: Евгений Леонов, Зинаида Дехтярёва, Маргарита Криницына, Галина Микеладзе, Лев Прыгунов, Генрих Осташевский, Иван Симоненко, Евгений Коваленко, Дмитрий Капка, Николай Яковченко, Владимир Васильев, Зоя Фёдорова, Николай Погодин, Елена Вольская, Ирина Колегаева, Юрий Тавров, Александр Лебедев, Вера Титова, Лев Перфилов

Продолжительность: 01:16:06Качество видео: DVDRip

Дата российской премьеры: 19 июля 1971

Видео: Xvid, 640x336, 25 fpsб ~1148 kbps avg, 0.214 bit/pixelАудио: MP3, 2 ch, 128.00 kbps avg, 48,0 kHz

Скриншоты:

Код:
ОбщееПолное имя                               : Mezh_vysokih_hlebov.aviФормат                                   : AVIФормат/Информация                        : Audio Video InterleaveРазмер файла                             : 700 МбайтПродолжительность                        : 1 ч. 16 м.Общий поток                              : 1286 Кбит/секНазвание фильма                          : Меж высоких хлебов (1970)Правообладатель                          : HeDgEhOt®

ВидеоИдентификатор                            : 0Формат                                   : MPEG-4 VisualПрофиль формата                          : Advanced [email protected]Параметр BVOP формата                    : 1Параметр QPel формата                    : НетПараметр GMC формата                     : Без точки переходаПараметр матрицы формата                 : ВыборочнаяРежим смешивания                         : Сжатый битовый потокИдентификатор кодека                     : XVIDИдентификатор кодека/Подсказка           : XviDПродолжительность                        : 1 ч. 16 м.Битрейт                                  : 1148 Кбит/секШирина                                   : 640 пикселейВысота                                   : 336 пикселейСоотношение сторон                       : 1,905Частота кадров                           : 25,000 кадров/секЦветовое пространство                    : YUVСубдискретизация насыщенности            : 4:2:0Битовая глубина                          : 8 битТип развёртки                            : ПрогрессивнаяМетод сжатия                             : С потерямиБит/(Пиксели*Кадры)                      : 0.214Размер потока                            : 625 Мбайт (89%)Библиотека кодирования                   : XviD 1.1.2 (UTC 2006-11-01)

АудиоИдентификатор                            : 1Формат                                   : MPEG AudioВерсия формата                           : Version 1Профиль формата                          : Layer 3Режим                                    : Joint stereoРасширение режима                        : MS StereoИдентификатор кодека                     : 55Идентификатор кодека/Подсказка           : MP3Продолжительность                        : 1 ч. 16 м.Вид битрейта                             : ПостоянныйБитрейт                                  : 128 Кбит/секКаналы                                   : 2 каналаЧастота                                  : 48,0 КГцМетод сжатия                             : С потерямиРазмер потока                            : 69,7 Мбайт (10%)Выравнивание                             : Соединение по промежуткамПродолжительность промежутка             : 40  мс. (1,00 видеокадр)Время предзагрузки промежутка            : 504  мс.Библиотека кодирования                   : LAME3.97bНастройки программы                      : -m j -V 4 -q 2 -lowpass 17 -b 128Язык                                     : Русский

torrents45.xyz

Меж высоких хлебов (1970) DVDRip-AVC

Категория: Фильмы: DVD Rip

Страна производства: CCCPЖанр: КомедияРежиссер: Леонид МиллионщиковАктеры: Евгений Леонов, Зинаида Дехтярева, Маргарита Криницына, Галина Микеладзе, Лев Прыгунов, Генрих Осташевский, Иван Симоненко, Елена Коваленко, Дмитрий Капка, Николай Яковченко, В. Васильев, Зоя ФедороваПеревод: Не требуетсяЯзык: РусскийОписание:Колхозный конюх Павло Стручок (Леонов) был добрым человеком и отзывчивым. Сватался он к ладной вдове (дочь Олеся мечтала возить на грузовике зерно), но не могла она забыть мужа Платона. Многим помогал Павло, но не мог отказаться и от угощения, от горилки, что заставляло переживать вдову. А ведь у нее дочь уже была девкой на выданье, и за ней ухаживал гарный местный хлопец, собирающийся поступать в мореходное училище. Увивался он постоянно возле Олеси, из-за чего снижались трудовые показатели по ремонту сельхозтехники, что огорчало председателя. Любовь к горилке довела Павло до народного суда, после чего он подался в Киев. Жизнь там, однако, оказалась для него невыносимой, и вернулся конюх в родное село. Легкая, смешная комедия. Есть весьма удачные места и ситуации.

Ограничения по возрасту: 0+ (для любой зрительской аудитории)

Качество видео:Источник: DVDRipФормат: MKVВидео кодек: x264Видео: 696x390, 25.000 fps, 2750 kbps

Качество аудио:Аудио кодек: AC3Аудио Rus: AC3, 48.0 KHz, 6 ch, 448 KbpsПродолжительность: 01:16:48

Релиз от:

Раздают: 0Качают: 0Скачавших: 8Из них пользователи: 1Список скачавшихСкорость U/D:0байт/0байт

Разбанил: Serveladkin

Поделиться:

zlotracker.org

Меж высоких хлебов (1970) DVDRip скачать через торрент бесплатно

Перейти: Выберите форум------------------НОВОСТИ, ПРАВИЛА и FAQ   Новости и объявления сайта      Новости сайта      Новости сети      Мировые новости   Правила, Основные инструкции и FAQКИНО, ВИДЕО и ТВ   Зарубежное кино      Новинки кино      Фильмы 2016-2017      Боевики      Триллеры      Приключения      Фантастика, Фэнтези      Детское, Семейное кино      Комедии      Драмы, Мелодрамы      Ужасы      Детективы      Криминал      Военные      Вестерн      Исторические      Документальные      Индийское кино      Дилогии      Трилогии      Квадралогии      Пенталогии      Антологии      Трейлеры и доп.материалы   Отечественное кино      Новинки кино      Боевики      Триллеры      Приключения      Фантастика, Фэнтези      Сказки      Детское, Семейное кино      Комедии      Драмы, Мелодрамы      Ужасы      Детективы      Криминал      Военные      Катастрофы      TB-Шоу      Юмор|Приколы      Документальные      Трейлеры и доп.материалы      Кино СССР   Видео HD      Blu-ray      BD-Remux      720p | 1080p      HD-Video в 3D      Наше кино (HD Video)   Мультфильмы      Зарубежные мультфильмы      Зарубежные мультфильмы (HD Video)      Зарубежные мультфильмы (DVD Video)      Отечественные мультфильмы      Отечественные мультфильмы (HD Video)      Отечественные мультфильмы (DVD Video)      3D Мультфильмы   Сериалы      Новинки      Отечественные сериалы      Зарубежные сериалы   Видео DVD      DVD-5      DVD-9   Телевидение      Discovery      Научно-популярные      Путешествия и туризм      Тайны и загадки      Техника и вооружение      Катастрофы   Анимэ   Фитнес - Разум и ТелоМУЗЫКА и КЛИПЫ   Музыка МР3      Отечественная музыка      Отечественная музыка (сборники)      Club,| Trance,| House,| Drum & Bass         Trance         Drum & Bass         House         Easy listening      Шансон|Авторская песня      Зарубежная музыка      Зарубежная музыка (сборники)      Rap, Hip-hop, R'n'B      Рок, Панк, Метал, Альтернатива      Classic Rock & Hard Rock      Progressive & Art-Rock      AOR (Melodic Hard Rock, Arena rock)      Heavy, Power, Progressive (Metal)      Alternative & Nu-metal      Русский Рок      Джаз, Блюз, Соул      Дискографии (Отечественные)      Дискографии (Зарубежные)      50/50 (сборники)      Советская эстрада      Instrumental/New Age/Meditative/Relax      Классика   Lossless      Отечественная музыка      Отечественная музыка (сборники)      Club,| Trance,| House,| Drum & Bass      Шансон|Авторская песня      Зарубежная музыка      Rap, Hip-hop, R'n'B      Рок, Панк, Метал, Альтернатива      Classic Rock & Hard Rock      Progressive & Art-Rock      Heavy, Power, Progressive (Metal)      Alternative & Nu-metal      Джаз, Блюз, Соул      Blues (Texas, Chicago, Modern and Others)      Jazz Fusion      Русский рок      Дискографии (Отечественные)      Дискографии (Зарубежные)      Классика      Instrumental/New Age/Meditative/Relax   HD Audio и Многоканальная Музыка      DTS CD / SACD-R      DVD-Audio      Vinyl-Rip и Hand-Made      Hi-Res stereo (рок)      Hi-Res stereo (Джаз и Блюз)      Hi-Res stereo (Поп)      Hi-Res stereo (Электронная музыка)      Зарубежный рок (оцифровки)      Джаз и блюз (оцифровки)      Зарубежная поп-музыка (оцифровки)      Отечественная поп-музыка (оцифровки)      Электронная музыка (оцифровки)      Классика и классика в современной обработке (многоканальная музыка)      Классика (HD Audio)   Клипы      Клипы      Клипы (HD-Video)      Караоке (видео)      Концерты      Концерты (DVD-Video)      Концерты (HD-Video)   Тестовые диски для настройки аудио/видео аппаратурыИГРЫ   PC игры      Горячие Новинки      Гонки      Action      Стратегии      RPG      Аркады      Авиасимуляторы и Автосимуляторы      Детские      Другие симуляторы      Приключения и квесты|я ищу      Логические      Мини-игры      Сборники игр      Старые игры      Моды, Руссификаторы, Таблетки, Дополнения   Консольные игры      XBOX 360      PS|PS2|PS3      PSP      Программы | ПрошивкиПРОГРАММЫ   Windows      Сборки Windows 10      OC Windows 8      OC Windows 7      OC Windows XP      Системные программы      Офисные системы      Аудио- и видео-CD- проигрыватели      Антивирусы, Файерволы      Редакторы видео и аудио      Программы для интернета и сетей      Драйвера      WPI      САПР      Разные пользовательские программы   LinuxЛИТЕРАТУРА   Книги      Собрания сочинений      Многоавторские сборники      Детективы и Боевики      Фантастика, фэнтези      Приключения      Женский роман      Триллеры. Мистика. Ужасы      Сатира, юмор      Исторические книги      Классика, современная проза и поэзия      Детская литература      Русская литература      Зарубежная литература (XX и XXI век)   Аудиокниги      Фантастика, фэнтези      Детектив и Боевики      Приключения      Современная проза и поэзия      Российская фантастика, фэнтези, мистика, ужасы, фанфики      Зарубежная фантастика, фэнтези, мистика, ужасы      Зарубежная литература      Детские литература      Любовно-фантастический роман      Историческая      Сатира, юмор      Другие   Журналы и Документация      Мужские журналы      Женские журналы      На досуге      Научно-популярные журналы      Автомобильные журналы      Детские журналы      Компьютерная литература      Кулинария      Вязание, вышивка, кройка, шитьё      Домоводство      Техническая литература      Научно-популярная лит-ра      Энциклопедии и словари      Нетрадиционная медицина      Многопредметные коллекции (подборки)   Мультимедийные и интерактивные издания      Интерактивные обучающие и развивающие материалы      Обучающие издания для детей      Кулинария. Цветоводство. Домоводство      Видеокурсы      Фотография, Видео      Игра на гитаре      Строительство, ремонт и дизайн   Литература и прочие Обучающие материалы      Настольные игры и Поделки      Развивающее Видео для детей      Эзотерика, гадания, магия, фен-шуй      Популярная психология      Рисунок, графический дизайн      Мода. Стиль. Этикет      Компьютерные сети и безопасность      Работа с видео      Астрология      Физкультура, фитнес, бодибилдинг      Веб-дизайн и программирование   Ремонт и эксплуатация транспортных средств      Программы по диагностике и ремонту      Книги по ремонту/обслуживанию/эксплуатации ТС      Виртуальная автошкола      Документальные/познавательные фильмы      Top Gear/Топ Гир   Обучение иностранным языкам      Английский язык (для взрослых)      Немецкий язык      Французский язык      Испанский язык      Итальянский язык      Финский язык      Японский язык      Китайский язык      Арабский язык      Русский язык как иностранныйМОБИЛЬНЫЕ УСТРОЙСТВА   Mobile/PDA      Android      ГИС, системы навигации и карты      Программы для PC   Mobile Игры, Фильмы, Музыка и прочее      Android игры      Видео для смартфонов и КПК      Фильмы для iPod, iPhone, iPad      Аудиокниги (AAC, ALAC)      Музыка (АСС)АРХИВ   Мусор 

rutorka.net

Меж высоких хлебов (1970) DVDRip-AVC от ExKinoRay

Информация о фильмеНазвание: Меж высоких хлебовГод выхода: 1970Жанр: КомедияРежиссер: Леонид МиллионщиковВ ролях: Евгений Леонов, Зинаида Дехтярева, Маргарита Криницына, Галина Микеладзе, Лев Прыгунов, Генрих Осташевский, Иван Симоненко, Елена Коваленко, Дмитрий Капка, Николай Яковченко, В. Васильев, Зоя Федорова

О фильме: Колхозный конюх Павло Стручок (Леонов) был добрым человеком и отзывчивым. Сватался он к ладной вдове (дочь Олеся мечтала возить на грузовике зерно), но не могла она забыть мужа Платона. Многим помогал Павло, но не мог отказаться и от угощения, от горилки, что заставляло переживать вдову. А ведь у нее дочь уже была девкой на выданье, и за ней ухаживал гарный местный хлопец, собирающийся поступать в мореходное училище. Увивался он постоянно возле Олеси, из-за чего снижались трудовые показатели по ремонту сельхозтехники, что огорчало председателя. Любовь к горилке довела Павло до народного суда, после чего он подался в Киев. Жизнь там, однако, оказалась для него невыносимой, и вернулся конюх в родное село. Легкая, смешная комедия. Есть весьма удачные места и ситуации.

Страна: СССРПродолжительность: 01:16:48Перевод: не требуется

ФайлКодек: MKVКачество: DVDRip-AVCВидео: MPEG-4 AVC, 2750 Кбит/с, [email protected]Звук: AC3, 6 ch, 448 Кбит/с

Медиа-Инфо

raw [info]: 696x390p 16:15 @ 25/1 fps (cfr) x264 [info]: using SAR=16/15 x264 [info]: using cpu capabilities: MMX2 SSE2Fast SSSE3 SSE4.2 AVX x264 [info]: profile High, level 4.1 x264 [info]: frame I:678 Avg QP:17.09 size: 52911 x264 [info]: frame P:28913 Avg QP:20.23 size: 25635 x264 [info]: frame B:84583 Avg QP:22.40 size: 9373 =============================================================================================================== Общее Уникальный идентификатор : 222660669416279860646871830315181431146 (0xA782E293B9B991F7B18047E26FA6596A) Полное имя : D:Меж высоких хлебов_1970-DVDRip-AVC.mkv Формат : Matroska Версия формата : Version 2 Размер файла : 1,70 Гбайт Продолжительность : 1 ч. 16 м. Общий поток : 3200 Кбит/сек Дата кодирования : UTC 2015-04-09 00:51:35 Программа кодирования : mkvmerge v5.8.0 ('No Sleep / Pillow') built on Sep 2 2012 15:37:04 Библиотека кодирования : libebml v1.2.3 + libmatroska v1.3.0

Видео Идентификатор : 1 Формат : AVC Формат/Информация : Advanced Video Codec Профиль формата : [email protected] Параметр CABAC формата : Да Параметр ReFrames формата : 15 кадров Идентификатор кодека : V_MPEG4/ISO/AVC Продолжительность : 1 ч. 16 м. Битрейт : 2750 Кбит/сек Ширина : 696 пикселей Высота : 390 пикселей Соотношение сторон : 1,903 Соотношение сторон в оригинале : 1,904 Режим частоты кадров : Постоянный Частота кадров : 25,000 кадров/сек Цветовое пространство : YUV Субдискретизация насыщенности : 4:2:0 Битовая глубина : 8 бит Тип развёртки : Прогрессивная Бит/(Пиксели*Кадры) : 0.405 Размер потока : 1,43 Гбайт (84%) Библиотека кодирования : x264 core 142 r2431 ac76440 Настройки программы : cabac=1 / ref=15 / deblock=1:-2:-2 / analyse=0x3:0x133 / me=umh / subme=10 / psy=1 / psy_rd=1.05:0.15 / mixed_ref=1 / me_range=24 / chroma_me=1 / trellis=2 / 8x8dct=1 / cqm=0 / deadzone=21,11 / fast_pskip=0 / chroma_qp_offset=-3 / threads=12 / lookahead_threads=2 / sliced_threads=0 / nr=0 / decimate=0 / interlaced=0 / bluray_compat=0 / constrained_intra=0 / bframes=7 / b_pyramid=2 / b_adapt=2 / b_bias=0 / direct=3 / weightb=1 / open_gop=0 / weightp=2 / keyint=250 / keyint_min=25 / scenecut=40 / intra_refresh=0 / rc=2pass / mbtree=0 / bitrate=2750 / ratetol=1.0 / qcomp=0.65 / qpmin=0 / qpmax=39 / qpstep=4 / cplxblur=20.0 / qblur=0.5 / ip_ratio=1.40 / pb_ratio=1.30 / aq=1:1.00 Язык : English Default : Да Forced : Нет Основные цвета : BT.601 PAL Характеристики трансфера : BT.470 System B, BT.470 System G Коэффициенты матрицы : BT.601 colour_range : Limited

Аудио Идентификатор : 2 Формат : AC-3 Формат/Информация : Audio Coding 3 Расширение режима : CM (complete main) Параметр Endianness формата : Big Идентификатор кодека : A_AC3 Продолжительность : 1 ч. 16 м. Вид битрейта : Постоянный Битрейт : 448 Кбит/сек Каналы : 6 каналов Расположение каналов : Front: L C R, Side: L R, LFE Частота : 48,0 КГц Битовая глубина : 16 бит Метод сжатия : С потерями Размер потока : 244 Мбайт (14%) Default : Да Forced : Нет

Релиз от: Автор релиза:

rutor.info

Меж высоких хлебов cкачать через торрент в HD » Кино-торрент

Сюжет: Деревенский конюх Стручок - человек душевный, отзывчивый. Из - за своей слабохарактерности он не может отказаться от угощений, которыми люди пытаются отблагодарить его за услуги. Из - за любви к выпивке Стручок часто попадает в смешные, а иногда и в печальные ситуации.

В главных ролях: Зинаида Дехтярева, Евгений Леонов, Дмитрий Капка, Иван Симоненко, Генрих Осташевский, Маргарита Криницына, Галина Микеладзе, Лев Прыгунов

Скриншоты:

Продолжительность: 81 мин. / 01:21

Возрастные ограничения: для любой зрительской аудитории

Прелесть советских шестидесятых-семидесятых в том, что энтузиазм работы и открытия нового еще одухотворял жизнь гражданина-труженика, а пропаганда классовой борьбы и прочая идеологическая шелуха уже отошла на задний план. Пример - изображение колхоза в картине 'Меж высоких хлебов', стоящей далеко не в первом и даже не во втором ряду шедевров советского кино. Акцент делается не на освоении целины или сверхурочном выполнении плана, а на том, как эта форма хозяйствования превращала село в одну большую семью. (Не случайно атмосфера столь уникального момента нашей истории была увековечена во многих прекрасных фильмах. Точнее, потому они и стали всенародно любимыми и нестареющими, что в них запечатлено это мироощущение.) И даже умилительная антиалкогольная кампания не выглядит казенщиной. По крайней мере, тогда с пьянством на деле боролись. А сейчас - см. фильм 'Граффити' - водка на селе единственная и несомненная царица и владычица. Да и вообще, если уж продолжить сравнения с лентами более позднего периода, в 'Меж высоких хлебов' отсутствует характерный для них оттенок тоски и разочарования. А в сопоставлении с более ранними картинами (с 'Кубанскими казаками', например) - нет вопиющей искусственности официозного оптимизма и мифологической слащавости. Пожалуй, единственная черта, характерная для 'деревенских' фильмов всех времен - стремление раскрыть широту национальной души. Заканчиваю вариации на тему 'как хочется в Советский Союз' и перехожу непосредственно к фильму. Собственно, в нем ничего не происходит. Это светлые элегические зарисовки жизни села Голубовки, пропитанные мягким лиризмом и густо заправленные фольклором - народными песнями, поговорками, местным диалектом. Пожалуй, не стоит распространяться, как харизматично протекает действо, насколько живыми и искренне симпатичными получились все без исключения персонажи - это как бы подразумевается. Остановлюсь на главном герое - конюхе Стручке, блестяще сыгранном Евгением Леоновым. Он пленяет балансом между актуально-социально-временным и экзистенциально-вечным, между индивидуальным и собирательным. Ему характерно и легкое отношение к жизни, свойственное героям французских комедий (Пьеру Ришару в 'Игрушке', например), и любовь к малой родине - архетипическая тема русской культуры. Но важнее всего то, что это удивительно цельная натура - 'мужик справный', как он сам про себя говорит. Именно таких, как Стручок, Борис Гребенщиков имеет в виду, когда поет 'храни целомудрие - все остальное пройдет'. В общем, так и тянет окрестить Стручка 'типично леоновским образом' - с другой стороны, интуитивно ощущаю, что Леонов в таких образах просто спасался от своей собственной сложности и противоречивости. П. С. Оффтопная ремарка: даже такую, казалось бы, проходную ленту в свое время посмотрело больше 25 миллионов человек. Для сравнения: мегараспиаренного 'Адмирала' 2009 года - 5 миллионов.

kino-torrent.com


 
 
Пример видео 3
Пример видео 2
Пример видео 6
Пример видео 1
Пример видео 5
Пример видео 4
Как нас найти

Администрация муниципального образования «Городское поселение – г.Осташков»

Адрес: 172735 Тверская обл., г.Осташков, пер.Советский, д.З
+7 (48235) 56-817
Электронная почта: [email protected]
Закрыть
Сообщение об ошибке
Отправьте нам сообщение. Мы исправим ошибку в кратчайшие сроки.
Расположение ошибки: .

Текст ошибки:
Комментарий или отзыв о сайте:
Отправить captcha
Введите код: *